+ ShareSpark.net »  :::: Bollywood Zone » Bollywood Movies (Original Rips) » Bollywood Movies (1945-2000)
|- Shola Aur Shabnam (1992) - 1080p - WebDL - x264 - AAC [xDM] - 5.21 GB


10% SBI and 10% Discount
  • Shola Aur Shabnam (1992) - 1080p - WebDL - x264 - AAC [xDM] - 5.21 GB 5 1
Currently:  

Shola Aur Shabnam (1992) - 1080p - WebDL - x264 - AAC [xDM] - 5.21 GB

0 Members and 1 Guest are viewing this topic.

March 09, 2017, 10:56:41 PM
  • Global Moderator
  • Legend Member
  • *****
  • Topic Author
  • Thank You: 12171
  • Reputation: 2507
  • Activity:
    100%
  • Country: in
  • Posts: 5711
  • Topics: 4665
  • Join Date: Jan 2014
  • ıllıllı ѕмoĸιng ιѕ good ғor нealтн ıllıllı :)




Shola Aur Shabnam (1992) - 1080p - WebDL - x264 - AAC [xDM] - 5.21 GB

Quote
Complete name : Shola Aur Shabnam (1992) - 1080p - WebDL - x264 - AAC [xDM].mp4
Format : MPEG-4
Format profile : Base Media
Codec ID : isom (isom/iso2/avc1/mp41)
File size : 5.21 GiB
Duration : 2 h 43 min
Overall bit rate mode : Variable
Overall bit rate : 4 568 kb/s
Writing application : Lavf56.40.101

Video
ID : 1
Format : AVC
Format/Info : Advanced Video Codec
Format profile : [email protected]
Format settings, CABAC : Yes
Format settings, ReFrames : 1 frame
Format settings, GOP : M=1, N=25
Codec ID : avc1
Codec ID/Info : Advanced Video Coding
Duration : 2 h 43 min
Bit rate mode : Constant
Bit rate : 4 500 kb/s
Width : 1 920 pixels
Height : 1 080 pixels
Display aspect ratio : 16:9
Frame rate mode : Constant
Frame rate : 25.000 FPS
Color space : YUV
Chroma subsampling : 4:2:0
Bit depth : 8 bits
Scan type : Progressive
Bits/(Pixel*Frame) : 0.087
Stream size : 5.13 GiB (99%)

Audio
ID : 2
Format : AAC
Format/Info : Advanced Audio Codec
Format profile : LC
Codec ID : 40
Duration : 2 h 43 min
Bit rate mode : Variable
Bit rate : 61.4 kb/s
Maximum bit rate : 63.8 kb/s
Channel(s) : 2 channels
Channel positions : Front: L R
Sampling rate : 48.0 kHz
Frame rate : 46.875 FPS (1024 spf)
Compression mode : Lossy
Stream size : 71.7 MiB (1%)
Default : Yes
Alternate group : 1












Quote




Don't walk as you are king, walk as you don't care who the king is....!!
Never argue with an idiot. They drag you down to their level and then beat you with experience?

Share this topic on FacebookShare this topic on GoogleShare this topic on MySpaceShare this topic on TwitterShare this topic on Yahoo




Don't walk as you are king, walk as you don't care who the king is....!!

Thanks given by:


March 09, 2017, 10:58:08 PM
Reply #1
  • Hot Member
  • ***
  • Thank You: 0
  • Reputation: 7
  • Activity:
    0%
  • Country: in
  • Posts: 635
  • Topics: 0
  • Join Date: Dec 2016
  • ShareSpark Member

March 10, 2017, 09:42:38 AM
Reply #2
  • Senior Member
  • ***
  • Thank You: 26
  • Reputation: -10
  • Activity:
    0%
  • Country: bd
  • Posts: 246
  • Topics: 8
  • Join Date: Jan 2017
  • ShareSpark Member

January 21, 2019, 08:02:11 PM
Reply #3
  • Semi Newbie
  • **
  • Thank You: 0
  • Reputation: 2
  • Activity:
    3.2%
  • Country: no
  • Posts: 16
  • Topics: 0
  • Join Date: Jan 2019
  • ShareSpark Member
i know it's an old topic, but can someone re-upload it to Google drive?  :think:

January 23, 2019, 02:40:17 PM
Reply #4
  • Newbie
  • **
  • Thank You: 0
  • Reputation: 0
  • Activity:
    0.2%
  • Country: ir
  • Posts: 1
  • Topics: 0
  • Join Date: Mar 2018
  • ShareSpark Member
Please upload this movie for download--(Subha-O-Sham )1971

Tags:
 

Related Topics

  Subject / Started by Replies Last post
0 Replies
714 Views
Last post March 21, 2016, 08:16:21 PM
by pbhavesh
0 Replies
1112 Views
Last post August 07, 2016, 02:23:35 PM
by -Ð@Rk.ÐèVi£-
1 Replies
987 Views
Last post June 15, 2017, 04:24:56 PM
by ~DoSANJiT
1 Replies
182 Views
Last post February 01, 2019, 03:16:53 PM
by feri123
4 Replies
480 Views
Last post February 04, 2019, 06:49:11 PM
by Special26




Back to top
Saisons et Episodes | პერსონალური კომპიუტერები, ნოუთბუქები, ტაბლეტები | Zu verschenken Tauschen