+ ShareSpark.net »  :::: Bollywood Zone » Bollywood Movies (Original Rips) » High Resolution Movies
|- Shaitaan Haveli (2018) 1080p WEBDL AAC 2.0 Team Jio Exclusive 15.40 GB


10% SBI and 10% Discount
  • Shaitaan Haveli (2018) 1080p WEBDL AAC 2.0 Team Jio Exclusive 15.40 GB 5 1
Currently:  

Shaitaan Haveli (2018) 1080p WEBDL AAC 2.0 Team Jio Exclusive 15.40 GB

0 Members and 1 Guest are viewing this topic.

January 07, 2018, 09:22:46 PM
  • Global Moderator
  • Legend Member
  • *****
  • Topic Author
  • Thank You: 12181
  • Reputation: 2505
  • Activity:
    98.8%
  • Country: in
  • Posts: 5711
  • Topics: 4665
  • Join Date: Jan 2014
  • ıllıllı ѕмoĸιng ιѕ good ғor нealтн ıllıllı :)
Shaitaan Haveli (2018) 1080p WEBDL AAC 2.0 Team Jio Exclusive



:info:

Quote
Format                      : MPEG-4
Format profile              : Base Media
Codec ID                    : isom (isom)
File size                   : 15.4 GiB
Duration                    : 2 h 56 min
Overall bit rate mode       : Variable
Overall bit rate            : 12.5 Mb/s
Encoded date                : UTC 2018-01-04 16:17:46
Tagged date                 : UTC 2018-01-04 16:17:46

Video
ID                          : 1
Format                      : AVC
Format/Info                 : Advanced Video Codec
Format profile              : [email protected]
Format settings             : CABAC / 2 Ref Frames
Format settings, CABAC      : Yes
Format settings, ReFrames   : 2 frames
Codec ID                    : avc1
Codec ID/Info               : Advanced Video Coding
Duration                    : 2 h 56 min
Bit rate mode               : Variable
Bit rate                    : 12.3 Mb/s
Maximum bit rate            : 40.0 Mb/s
Width                       : 1 920 pixels
Height                      : 1 080 pixels
Display aspect ratio        : 16:9
Frame rate mode             : Constant
Frame rate                  : 60.000 FPS
Color space                 : YUV
Chroma subsampling          : 4:2:0
Bit depth                   : 8 bits
Scan type                   : Progressive
Bits/(Pixel*Frame)          : 0.099
Stream size                 : 15.3 GiB (99%)
Tagged date                 : UTC 2018-01-04 16:28:32
Color range                 : Full
Matrix coefficients         : BT.709

Audio
ID                          : 2
Format                      : AAC
Format/Info                 : Advanced Audio Codec
Format profile              : LC
Codec ID                    : mp4a-40-2
Duration                    : 2 h 56 min
Bit rate mode               : Variable
Bit rate                    : 132 kb/s
Maximum bit rate            : 140 kb/s
Channel(s)                  : 2 channels
Channel positions           : Front: L R
Sampling rate               : 48.0 kHz
Frame rate                  : 46.875 FPS (1024 SPF)
Compression mode            : Lossy
Stream size                 : 165 MiB (1%)
Encoded date                : UTC 2018-01-04 16:18:39
Tagged date                 : UTC 2018-01-04 16:28:32

:ss:






:download:

Quote



File Leeched & Uploaded From




Don't walk as you are king, walk as you don't care who the king is....!!
Never argue with an idiot. They drag you down to their level and then beat you with experience?

Share this topic on FacebookShare this topic on GoogleShare this topic on MySpaceShare this topic on TwitterShare this topic on Yahoo




Don't walk as you are king, walk as you don't care who the king is....!!

Thanks given by:


January 07, 2018, 09:32:57 PM
Reply #1
  • Conqueror
  • Elite Forces
  • *****
  • Thank You: 494
  • Reputation: 185
  • Activity:
    3.4%
  • Country: in
  • Posts: 1140
  • Topics: 490
  • Join Date: Oct 2015
  • Hit ThanX Button 🔳 N Repute Button 🔳
Hit Thnx Button 🔳 N + Repute Button 🔳 Always Appreciate UploadeR 🤗 GiVe Respect GeT Respect :yu:

January 08, 2018, 07:10:03 AM
Reply #2
  • Semi Newbie
  • **
  • Thank You: 0
  • Reputation: 5
  • Activity:
    0%
  • Country: ad
  • Posts: 25
  • Topics: 0
  • Join Date: Dec 2017
  • ShareSpark Member
bakwas....uhh...feels like vomiting...do not post ...B grade movies....

Tags:
 

Related Topics

  Subject / Started by Replies Last post
0 Replies
665 Views
Last post January 04, 2018, 08:53:55 PM
by Rάήνίјάч1234
0 Replies
1089 Views
Last post February 26, 2018, 05:55:36 PM
by UnikAaYush
2 Replies
1990 Views
Last post March 31, 2018, 02:23:43 AM
by topy
0 Replies
591 Views
Last post April 09, 2018, 08:57:32 PM
by UnikAaYush
0 Replies
197 Views
Last post February 02, 2019, 09:03:52 AM
by Special26




Back to top
Watch Now | Rose background is Valentine's Day gift petal red flower 25 HQ Jpeg | Другое