+ ShareSpark.net »  :::: Bollywood Zone » Indian PC Videos
|- Raazi (2018) Bollywood Movie Music Album 1080p WEB-DL H264 AAC3.0 ESubs By ~MaLiK ZEE~


TV and Appliances

Raazi (2018) Bollywood Movie Music Album 1080p WEB-DL H264 AAC3.0 ESubs By ~MaLiK ZEE~

0 Members and 1 Guest are viewing this topic.

July 20, 2018, 05:36:08 PM
Raazi (2018) Bollywood Movie Music Album 1080p WEB-DL H264 AAC3.0 ESubs By ~MaLiK ZEE~


Quote

General
Format                      : Matroska
Format version              : Version 4 / Version 2
Overall bit rate            : 28.9 Mb/s
Writing application         : Lavf57.28.100
Writing library             : Lavf57.28.100

Video
ID                          : 1
Format                      : AVC
Format/Info                 : Advanced Video Codec
Format profile              : [email protected]
Format settings             : CABAC / 4 Ref Frames
Format settings, CABAC      : Yes
Format settings, ReFrames   : 4 frames
Codec ID                    : V_MPEG4/ISO/AVC
Bit rate                    : 28.8 Mb/s
Width                       : 3 840 pixels
Height                      : 1 632 pixels
Display aspect ratio        : 2.35:1
Frame rate mode             : Constant
Frame rate                  : 23.976 (23976/1000) FPS
Color space                 : YUV
Chroma subsampling          : 4:2:0
Bit depth                   : 8 bits
Scan type                   : Progressive
Bits/(Pixel*Frame)          : 0.192
Stream size                 : 843 MiB (97%)
Writing library             : x264 core 148 r2665 a01e339
Default                     : Yes
Forced                      : No

Audio
ID                          : 2
Format                      : AC-3
Format/Info                 : Audio Coding 3
Codec ID                    : A_AC3
Bit rate mode               : Constant
Bit rate                    : 384 kb/s
Channel(s)                  : 6 channels
Channel positions           : Front: L C R, Side: L R, LFE
Sampling rate               : 48.0 kHz
Frame rate                  : 31.250 FPS (1536 SPF)
Bit depth                   : 16 bits
Compression mode            : Lossy
Delay relative to video     : -88 ms
Stream size                 : 11.6 MiB (1%)
Writing library             : Lavc57.28.100 ac3
Language                    : Hindi
Service kind                : Complete Main
Default                     : Yes
Forced                      : No


 :ss:














 :download:

Google Drive

Quote
01-Raazi 1

02-Dilbaro

03-Raazi 2

04-Ae Watan

05-Ae Watan End Roll
:download:
Zip File
Quote




Share this topic on FacebookShare this topic on GoogleShare this topic on MySpaceShare this topic on TwitterShare this topic on Yahoo

« Last Edit: January 21, 2019, 11:05:14 PM by 【M】【A】【L】【I】【K】 【Z】【E】【E】 »


Thanks given by:


 

Related Topics





Back to top
Ampon Rattanawong | Dee Bradley Baker | Edin Sol