+ ShareSpark.net »  :::: Bollywood Zone » Indian PC Videos
|- KabhiKhushiKabhieGham(2001) Bollywood Movie Music Album 1080p Blur-ay x264 DTSHD 5.1 By~MaLiK ZEE~


TV and Appliances

KabhiKhushiKabhieGham(2001) Bollywood Movie Music Album 1080p Blur-ay x264 DTSHD 5.1 By~MaLiK ZEE~

0 Members and 1 Guest are viewing this topic.

September 11, 2018, 03:11:00 AM
Kabhi Khushi Kabhie Gham (2001) Bollywood Movie Music Album 1080p Blur-ay x264 DTSHD 5.1 By ~MaLiK ZEE~


~♥ BollyWooD MoviE ♥~
(Kabhi Khushi Kabhie Gham 2001)

Quote

Specs ♪♫
General
Format                      : Matroska
Format version              : Version 4 / Version 2
File size                   : 6.65 GB
Overall bit rate            : 14.4 Mb/s
Encoded date                : UTC 2018-09-06 07:37:21
Writing application         : mkvmerge v25.0.0 ('Prog Noir') 64-bit
Writing library             : libebml v1.3.6 + libmatroska v1.4.9

♪ Video ♪
ID                          : 1
Format                      : AVC
Format/Info                 : Advanced Video Codec
Format profile              : [email protected]
Format settings             : CABAC / 5 Ref Frames
Format settings, CABAC      : Yes
Format settings, ReFrames   : 5 frames
Codec ID                    : V_MPEG4/ISO/AVC
Bit rate                    : 11.7 Mb/s
Width                       : 1 920 pixels
Height                      : 816 pixels
Display aspect ratio        : 2.35:1
Frame rate mode             : Constant
Frame rate                  : 24.000 FPS
Color space                 : YUV
Chroma subsampling          : 4:2:0
Bit depth                   : 8 bits
Scan type                   : Progressive
Bits/(Pixel*Frame)          : 0.312
Stream size                 : 574 MiB (81%)
Title                       : ~MaLiK ZEE~
Language                    : English
Default                     : Yes
Forced                      : No
Color range                 : Limited
Color primaries             : BT.709
Transfer characteristics    : BT.709
Matrix coefficients         : BT.709

♫ Audio ♫
ID                          : 2
Format                      : DTS
Format/Info                 : Digital Theater Systems
Format profile              : MA / Core
Codec ID                    : A_DTS
Bit rate mode               : Variable / Constant
Bit rate                    : 2 667 kb/s / 1 509 kb/s
Channel(s)                  : 6 channels
Channel positions           : Front: L C R, Side: L R, LFE
Sampling rate               : 48.0 kHz
Frame rate                  : 93.750 FPS (512 SPF)
Bit depth                   : 16 bits
Compression mode            : Lossless / Lossy
Delay relative to video     : 4 ms
Stream size                 : 130 MiB (19%)
Title                       : ~MaLiK ZEE~
Language                    : English
Default                     : Yes
Forced                      : No

English Subtitles : Yes
Chapters : Yes

Ripped By ~MaLiK ZEE~

 :ss:

























































 :download:

Google Drive

Quote
01-Kabhi Khushi Kabhie Gham 1

02-Say Shava Shava

03-Suraj Hua Maddham

04-Yeh Ladka Hai Allah

05-Kabhi Khushi Kabhie Gham 2

06-Vande Mataram

07-Deewana Hai Dekho

08-Kabhi Khushi Kabhie Gham 3

09-Oom Je

10-You Are My Soniya

11-Bole Chudiyan

12-Kabhi Khushi Kabhie Gham 4

13-Kabhi Khushi Kabhie Gham End Roll
:download:
Zip File
Quote



Share this topic on FacebookShare this topic on GoogleShare this topic on MySpaceShare this topic on TwitterShare this topic on Yahoo

« Last Edit: November 18, 2018, 03:34:36 PM by 【M】【A】【L】【I】【K】 【Z】【E】【E】 »


Thanks given by:


Tags:
 

Related Topics





Back to top
Downton Abbey | Barbapapa | The.Big.Bang.Theory.S11E05.Das.Erziehungs-Experiment.German.DD51.Dubbed.DL.1080p.AmazonHD.x264-TVS