+ ShareSpark.net »  :::: Bollywood Zone » Indian PC Videos
|- Jannat (2008) Bollywood Movie All Video Music Album 1080p WEB-DL H264 DDP 5.1 By ~MaLiK ZEE~


TV and Appliances
  • Jannat (2008) Bollywood Movie All Video Music Album 1080p WEB-DL H264 DDP 5.1 By ~MaLiK ZEE~ 5 1
Currently:  

Jannat (2008) Bollywood Movie All Video Music Album 1080p WEB-DL H264 DDP 5.1 By ~MaLiK ZEE~

0 Members and 1 Guest are viewing this topic.

October 04, 2018, 12:27:40 AM
Jannat (2008) Bollywood Movie All Video Music Album 1080p WEB-DL H264 DDP 5.1 By ~MaLiK ZEE~


~♥ BollyWooD MoviE ♥~
(Jannat 2008)

Quote

Specs ♪♫
General
Format                      : Matroska
Format version              : Version 4 / Version 2
File size                   : 1.75 GB
Overall bit rate mode       : Variable
Overall bit rate            : 11.1 Mb/s
Encoded date                : UTC 2018-10-03 07:17:49
Writing application         : mkvmerge v25.0.0 ('Prog Noir') 64-bit
Writing library             : libebml v1.3.6 + libmatroska v1.4.9

♪ Video ♪
ID                          : 1
Format                      : AVC
Format/Info                 : Advanced Video Codec
Format profile              : [email protected]
Format settings             : CABAC / 4 Ref Frames
Format settings, CABAC      : Yes
Format settings, ReFrames   : 4 frames
Codec ID                    : V_MPEG4/ISO/AVC
Bit rate mode               : Variable
Bit rate                    : 10.4 Mb/s
Maximum bit rate            : 15.0 Mb/s
Width                       : 1 920 pixels
Height                      : 816 pixels
Display aspect ratio        : 2.35:1
Original display aspect rat : 2.35:1
Frame rate mode             : Constant
Frame rate                  : 24.000 FPS
Color space                 : YUV
Chroma subsampling          : 4:2:0
Bit depth                   : 8 bits
Scan type                   : Progressive
Bits/(Pixel*Frame)          : 0.278
Stream size                 : 382 MiB (94%)
Language                    : English
Default                     : Yes
Forced                      : No
Color range                 : Limited
Color primaries             : BT.709
Transfer characteristics    : BT.709
Matrix coefficients         : BT.709

♫ Audio ♫
ID                          : 2
Format                      : E-AC-3
Format/Info                 : Enhanced Audio Coding 3
Codec ID                    : A_EAC3
Bit rate mode               : Constant
Bit rate                    : 640 kb/s
Channel(s)                  : 6 channels
Channel positions           : Front: L C R, Side: L R, LFE
Sampling rate               : 48.0 kHz
Frame rate                  : 187.500 FPS (256 SPF)
Compression mode            : Lossy
Delay relative to video     : -112 ms
Stream size                 : 23.4 MiB (6%)
Title                       : By ~MaLiK ZEE~
Language                    : Hindi
Service kind                : Complete Main
Default                     : Yes
Forced                      : No

English Subtitles : No
Chapters : No

Ripped By ~MaLiK ZEE~

 :ss:




















 :download:

Google Drive

Quote
01-Zara Sa 1 [By ~MaLiK ZEE~]

02-Jannat Jahan [By ~MaLiK ZEE~]

03-Lambi Judaai [By ~MaLiK ZEE~]

04-Han Tu Hain [By ~MaLiK ZEE~]

05-Zara Sa 2 [By ~MaLiK ZEE~]

06-Zara Sa End Roll [By ~MaLiK ZEE~]







Share this topic on FacebookShare this topic on GoogleShare this topic on MySpaceShare this topic on TwitterShare this topic on Yahoo

« Last Edit: January 09, 2019, 01:50:14 PM by 【M】【A】【L】【I】【K】 【Z】【E】【E】 »


Thanks given by:


October 04, 2018, 08:48:03 AM
Reply #1
  • Begginer
  • **
  • Thank You: 1
  • Reputation: 4
  • Activity:
    6.2%
  • Country: in
  • Posts: 56
  • Topics: 1
  • Join Date: Sep 2015
  • ShareSpark Member
 :10on10: :thank: :agreed: :bravo: :wow: thank for upload  and please upload all songs of emraan hashmi Blu-ray videos

October 04, 2018, 10:29:45 AM
Reply #2
  • Senior Member
  • ***
  • Thank You: 38
  • Reputation: 89
  • Activity:
    0.2%
  • Posts: 276
  • Topics: 111
  • Join Date: Apr 2012
  • ShareSpark Member
  • Expertises:
  • Hollywood Movies
thanks bro. you are doing an awesome job. please upload baaghi 2, baar baar dekho, and aksar, zeher movie songs in this quality too. if you can.

October 04, 2018, 12:36:16 PM
Reply #3
  • Senior Member
  • ***
  • Thank You: 0
  • Reputation: 2
  • Activity:
    1.8%
  • Country: in
  • Posts: 213
  • Topics: 0
  • Join Date: Oct 2014
  • ShareSpark Member
Thanks for Uploading this wonderful unforgettable Memories From This Great Movie Video Songs....

 :rep:    :10on10:     :thank:   

October 04, 2018, 01:04:15 PM
Reply #4
  • Global Mod (Inactive)
  • Elite Forces
  • *****
  • Thank You: 485
  • Reputation: 148
  • Activity:
    1.4%
  • Posts: 1380
  • Topics: 1069
  • Join Date: Dec 2012
  • king of old movies

October 04, 2018, 02:12:52 PM
Reply #5
  • Semi Newbie
  • **
  • Thank You: 0
  • Reputation: 0
  • Activity:
    0.8%
  • Country: ae
  • Posts: 26
  • Topics: 0
  • Join Date: Jun 2018
  • ShareSpark Member

October 04, 2018, 08:46:02 PM
Reply #6
  • Begginer
  • **
  • Thank You: 1
  • Reputation: 4
  • Activity:
    6.2%
  • Country: in
  • Posts: 56
  • Topics: 1
  • Join Date: Sep 2015
  • ShareSpark Member
Bro Please Upload Muskaan (2004) Movies And Videos in Blu-Ray Thanx

October 05, 2018, 09:02:44 AM
Reply #7
  • Newbie
  • **
  • Thank You: 0
  • Reputation: 3
  • Activity:
    0%
  • Country: pk
  • Posts: 2
  • Topics: 0
  • Join Date: Jun 2014
  • ShareSpark Member

Tags:
 

Related Topics





Back to top
Cosmologie | Bohemian Rhapsody 2018 720p BluRay x264-SPARKS | Honey and Clover