+ ShareSpark.net »  :::: Bollywood Zone » Indian PC Videos
|- Kasoor (2001) Bollywood Movie All Video Music Album 1080p WEB-DL H264 DDP 5.1 By ~MaLiK ZEE~


HDFC 10% Off
  • Kasoor (2001) Bollywood Movie All Video Music Album 1080p WEB-DL H264 DDP 5.1 By ~MaLiK ZEE~ 5 1
Currently:  

Kasoor (2001) Bollywood Movie All Video Music Album 1080p WEB-DL H264 DDP 5.1 By ~MaLiK ZEE~

0 Members and 1 Guest are viewing this topic.

October 06, 2018, 02:15:25 AM
Kasoor (2001) Bollywood Movie All Video Music Album 1080p WEB-DL H264 DDP 5.1 By ~MaLiK ZEE~


~♥ BollyWooD MoviE ♥~
(Kasoor 2001)

Quote

Specs ♪♫
General
Format                      : Matroska
Format version              : Version 4 / Version 2
File size                   : 1.62 GB
Overall bit rate mode       : Variable
Overall bit rate            : 7 489 kb/s
Encoded date                : UTC 2018-10-05 16:52:59
Writing application         : mkvmerge v25.0.0 ('Prog Noir') 64-bit
Writing library             : libebml v1.3.6 + libmatroska v1.4.9

♪ Video ♪
ID                          : 1
Format                      : AVC
Format/Info                 : Advanced Video Codec
Format profile              : [email protected]
Format settings             : CABAC / 4 Ref Frames
Format settings, CABAC      : Yes
Format settings, ReFrames   : 4 frames
Codec ID                    : V_MPEG4/ISO/AVC
Bit rate mode               : Variable
Bit rate                    : 6 850 kb/s
Maximum bit rate            : 15.0 Mb/s
Width                       : 1 920 pixels
Height                      : 816 pixels
Display aspect ratio        : 2.35:1
Original display aspect rat : 2.35:1
Frame rate mode             : Constant
Frame rate                  : 24.000 FPS
Color space                 : YUV
Chroma subsampling          : 4:2:0
Bit depth                   : 8 bits
Scan type                   : Progressive
Bits/(Pixel*Frame)          : 0.182
Stream size                 : 239 MiB (91%)
Language                    : English
Default                     : Yes
Forced                      : No
Color range                 : Limited
Color primaries             : BT.709
Transfer characteristics    : BT.709
Matrix coefficients         : BT.709

♫ Audio ♫
ID                          : 2
Format                      : E-AC-3
Format/Info                 : Enhanced Audio Coding 3
Codec ID                    : A_EAC3
Bit rate mode               : Constant
Bit rate                    : 640 kb/s
Channel(s)                  : 6 channels
Channel positions           : Front: L C R, Side: L R, LFE
Sampling rate               : 48.0 kHz
Frame rate                  : 187.500 FPS (256 SPF)
Compression mode            : Lossy
Delay relative to video     : -95 ms
Stream size                 : 22.3 MiB (9%)
Title                       : By ~MaLiK ZEE~
Language                    : Hindi
Service kind                : Complete Main
Default                     : Yes
Forced                      : No

English Subtitles : No
Chapters : No

Ripped By ~MaLiK ZEE~

 :ss:
























 :download:

Google Drive

Quote
01-Koi To Saathi Chahye [By~MaLiK ZEE~]

02-Mohabbat Ho Na Jaye [By~MaLiK ZEE~]

03-Kitni Bechain Hoke [By~MaLiK ZEE~]

04-Zindagi Ban Gaye Ho Tum [By~MaLiK ZEE~]

05-Dil Mera Tod Diya [By~MaLiK ZEE~]





Share this topic on FacebookShare this topic on GoogleShare this topic on MySpaceShare this topic on TwitterShare this topic on Yahoo

« Last Edit: January 09, 2019, 01:54:06 PM by 【M】【A】【L】【I】【K】 【Z】【E】【E】 »


Thanks given by:


October 06, 2018, 09:43:07 AM
Reply #1
  • Begginer
  • **
  • Thank You: 1
  • Reputation: 4
  • Activity:
    6%
  • Country: in
  • Posts: 56
  • Topics: 1
  • Join Date: Sep 2015
  • ShareSpark Member
 :thank: many many many thanx bro, and upload my some repuest as i want this movie songs - NAAM GUM JAYEGA 2005,TUMSE MILKE...WRONG NUMBER 2005

October 06, 2018, 09:52:35 AM
Reply #2
  • Semi Newbie
  • **
  • Thank You: 0
  • Reputation: 2
  • Activity:
    0%
  • Country: in
  • Posts: 41
  • Topics: 0
  • Join Date: Oct 2017
  • ShareSpark Member
Audio Remaster kar k UPLOAD kiya hota to achha hota.... direct cut me volume slow hota hai.... 😐

October 06, 2018, 11:14:48 AM
Reply #3
  • Senior Member
  • ***
  • Thank You: 0
  • Reputation: 2
  • Activity:
    1.8%
  • Country: in
  • Posts: 213
  • Topics: 0
  • Join Date: Oct 2014
  • ShareSpark Member
Thanks for Uploading this wonderful unforgettable Memories From This Great Movie Video Songs....

Evergreen Musical Blockbuster Hits By Nadeem-Shravan...

 :rep:     :thank:    :10on10:    :claps:

October 10, 2018, 06:40:15 AM
Reply #4
  • Newbie
  • **
  • Thank You: 1
  • Reputation: -1
  • Activity:
    0.4%
  • Country: in
  • Posts: 3
  • Topics: 2
  • Join Date: Oct 2018
  • ShareSpark Member

October 10, 2018, 09:18:43 AM
Reply #5
  • Semi Newbie
  • **
  • Thank You: 22
  • Reputation: 5
  • Activity:
    1.4%
  • Country: in
  • Posts: 22
  • Topics: 6
  • Join Date: Oct 2018
  • ShareSpark Member
vERY Nice And Nadeem Shravan Was Best For 90's Share More 90's Song Bro

October 10, 2018, 10:10:29 AM
Reply #6
  • Semi Newbie
  • **
  • Thank You: 0
  • Reputation: 0
  • Activity:
    0%
  • Country: in
  • Posts: 6
  • Topics: 0
  • Join Date: Oct 2017
  • ShareSpark Member
Thanks, for the great music please upload kal ki aawaz 1992 songs in 1080p

October 10, 2018, 04:19:58 PM
Reply #7
  • Newbie
  • **
  • Thank You: 0
  • Reputation: 0
  • Activity:
    0%
  • Country: mu
  • Posts: 1
  • Topics: 0
  • Join Date: Nov 2016
  • ShareSpark Member

February 02, 2019, 11:46:35 AM
Reply #8
  • Newbie
  • **
  • Thank You: 0
  • Reputation: 0
  • Activity:
    0.4%
  • Country: in
  • Posts: 4
  • Topics: 0
  • Join Date: Oct 2017
  • ShareSpark Member
Links are dead plz re upload,similarly all ur old links for hd 5.1 videos are dead.  What can we do

February 04, 2019, 04:46:04 PM
Reply #9
  • Semi Newbie
  • **
  • Thank You: 0
  • Reputation: -3
  • Activity:
    1.6%
  • Country: bd
  • Posts: 8
  • Topics: 0
  • Join Date: Nov 2018
  • ShareSpark Member

Tags:
 

Related Topics





Back to top
Shetland | Money Heist – la casa de papel | Create Computer Games: Design and Build Yo