+ ShareSpark.net »  :::: Bollywood Zone » Indian PC Videos
|- Raja Babu (1994) Hindi 1080p Untouched WebHD AVC DD Plus 2.0 {Music Video} ~ Special26


Redmi 6A

Raja Babu (1994) Hindi 1080p Untouched WebHD AVC DD Plus 2.0 {Music Video} ~ Special26

0 Members and 1 Guest are viewing this topic.

February 04, 2019, 10:29:12 AM
  • Conqueror
  • Legend Member
  • *****
  • Topic Author
  • Thank You: 5700
  • Reputation: 1203
  • Activity:
    100%
  • Country: np
  • Posts: 2191
  • Topics: 1776
  • Join Date: Jul 2016
  • Love Forever !!
Raja Babu (1994) Hindi 1080p Untouched WebHD AVC DD Plus 2.0 {Music Video} ~ Special26




 :info:
Format                         : Matroska
Format version                 : Version 4
File size                      : 1.23 GB
Overall bit rate               : 8 342 kb/s
Writing library : libebml v1.3.6 + libmatroska v1.4.9


Video
ID                             : 1
Format                         : AVC
Format/Info                    : Advanced Video Codec
Format profile                 : [email protected]
Format settings                : CABAC / 5 Ref Frames
Format settings, CABAC         : Yes
Format settings, ReFrames      : 5 frames
Codec ID                       : V_MPEG4/ISO/AVC
Bit rate                       : 7 891 kb/s
Width                          : 1 920 pixels
Height                         : 816 pixels
Display aspect ratio           : 2.35:1
Frame rate mode                : Constant
Frame rate                     : 25.000 FPS
Color space                    : YUV
Chroma subsampling             : 4:2:0
Bit depth                      : 8 bits
Scan type                      : Progressive
Bits/(Pixel*Frame)             : 0.201
Stream size                    : 278 MiB (95%)
Language                       : Hindi
Default                        : Yes
Forced                         : No
Color range                    : Limited
Color primaries                : Generic film
Transfer characteristics       : BT.709
Matrix coefficients            : BT.709


Audio #1
ID                             : 2
Format                         : AC-3
Format/Info                    : Audio Coding 3
Commercial name                : Dolby Digital
Codec ID                       : A_AC3
Bit rate mode                  : Constant
Bit rate                       : 224 kb/s
Channel(s)                     : 2 channels
Channel layout                 : L R
Sampling rate                  : 48.0 kHz
Frame rate                     : 31.250 FPS (1536 SPF)
Bit depth                      : 16 bits
Compression mode               : Lossy
Stream size                    : 7.90 MiB (3%)
Language                       : Hindi
Service kind                   : Complete Main
Default                        : No
Forced                         : No


Audio #2
ID                             : 3
Format                         : E-AC-3
Format/Info                    : Enhanced AC-3
Commercial name                : Dolby Digital Plus
Codec ID                       : A_EAC3
Bit rate mode                  : Constant
Bit rate                       : 224 kb/s
Channel(s)                     : 2 channels
Channel layout                 : L R
Sampling rate                  : 48.0 kHz
Frame rate                     : 31.250 FPS (1536 SPF)
Compression mode               : Lossy
Stream size                    : 7.90 MiB (3%)
Language                       : Hindi
Service kind                   : Complete Main
Default                        : Yes
Forced                         : No



 :ss:



















 :download:

Share this topic on FacebookShare this topic on GoogleShare this topic on MySpaceShare this topic on TwitterShare this topic on Yahoo



Thanks given by:


February 04, 2019, 10:07:54 PM
Reply #1
  • Global Mod (Inactive)
  • Elite Forces
  • *****
  • Thank You: 485
  • Reputation: 148
  • Activity:
    1.4%
  • Posts: 1380
  • Topics: 1069
  • Join Date: Dec 2012
  • king of old movies

February 05, 2019, 04:11:42 AM
Reply #2
  • Conqueror
  • Legend Member
  • *****
  • Topic Author
  • Thank You: 5700
  • Reputation: 1203
  • Activity:
    100%
  • Country: np
  • Posts: 2191
  • Topics: 1776
  • Join Date: Jul 2016
  • Love Forever !!
« Last Edit: February 05, 2019, 04:12:30 AM by Special26 »

Tags:
 

Related Topics

  Subject / Started by Replies Last post
0 Replies
1020 Views
Last post April 25, 2018, 08:37:36 AM
by Special26
3 Replies
799 Views
Last post January 22, 2019, 02:56:50 AM
by Serenity91
2 Replies
744 Views
Last post January 12, 2019, 04:03:30 PM
by Special26
4 Replies
752 Views
Last post January 08, 2019, 05:58:24 PM
by MayurSuccess
0 Replies
234 Views
Last post January 19, 2019, 08:55:32 PM
by Special26




Back to top
Documentary | Mood Relaxing Sounds | More Details