+ ShareSpark.net »  :::: Dubbed Zone (Dubbed English in Hindi) » English Movies Dubbed in Hindi » High Resolution Movies
|- Fantastic Beasts The Crimes of Grindelwald 2018 1080p HC HDRip x264 Dual Audio [Hindi - English] [MW


Mastercard 10% Off

Fantastic Beasts The Crimes of Grindelwald 2018 1080p HC HDRip x264 Dual Audio [Hindi - English] [MW

0 Members and 1 Guest are viewing this topic.

December 17, 2018, 02:05:38 PM
  • ***************
  • Conqueror
  • Legend Member
  • *****
  • Topic Author
  • Thank You: 1995
  • Reputation: 569
  • Activity:
    100%
  • Country: pk
  • Posts: 2373
  • Topics: 1629
  • Join Date: Mar 2015
  • =$ Success Never Ends $=
Fantastic Beasts The Crimes of Grindelwald 2018 1080p HC HDRip x264 Dual Audio [Hindi - English] [MW]









Quote

General
Format : Matroska
Format version : Version 4 / Version 2
File size : 2.08 GiB
Duration : 2 h 13 min
Overall bit rate : 2 231 kb/s

Video
ID : 1
Format : AVC
Format/Info : Advanced Video Codec
Format profile : [email protected]
Format settings : CABAC / 4 Ref Frames
Format settings, CABAC : Yes
Format settings, RefFrames : 4 frames
Codec ID : V_MPEG4/ISO/AVC
Duration : 2 h 13 min
Bit rate : 2 000 kb/s
Width : 1 920 pixels
Height : 800 pixels
Display aspect ratio : 2.40:1
Frame rate mode : Constant
Frame rate : 60.000 FPS
Color space : YUV
Chroma subsampling : 4:2:0
Bit depth : 8 bits
Scan type : Progressive
Bits/(Pixel*Frame) : 0.022
Stream size : 1.84 GiB (88%)
Writing library : x264 core 155 r2901 7d0ff22
Default : Yes
Forced : No

Audio #1
ID : 2
Format : AAC
Format/Info : Advanced Audio Codec
Format profile : LC
Codec ID : A_AAC-2
Duration : 2 h 13 min
Bit rate : 128 kb/s
Channel(s) : 2 channels
Channel positions : Front: L R
Sampling rate : 48.0 kHz
Frame rate : 46.875 FPS (1024 SPF)
Compression mode : Lossy
Stream size : 122 MiB (6%)
Language : Hindi
Default : Yes
Forced : No

Audio #2
ID : 3
Format : AAC
Format/Info : Advanced Audio Codec
Format profile : LC
Codec ID : A_AAC-2
Duration : 2 h 13 min
Bit rate : 129 kb/s
Channel(s) : 2 channels
Channel positions : Front: L R
Sampling rate : 48.0 kHz
Frame rate : 46.875 FPS (1024 SPF)
Compression mode : Lossy
Stream size : 123 MiB (6%)
Language : English
Default : No
Forced : No



 :ss:














 :download:









Share this topic on FacebookShare this topic on GoogleShare this topic on MySpaceShare this topic on TwitterShare this topic on Yahoo




Tags:
 

Related Topics





Back to top
Ray Nishimura | Future 38 | Droit pratique