+ ShareSpark.net »  :::: Bollywood Zone » Bollywood Movies (Original Rips) » Small Size Bollywood Movies
|- Ek Haseena Thi (2004) Hindi 480p DVDRip x264 AC3 5.1 ESub-Sun George


HDFC 10% Off

Ek Haseena Thi (2004) Hindi 480p DVDRip x264 AC3 5.1 ESub-Sun George

0 Members and 1 Guest are viewing this topic.

December 19, 2018, 07:01:35 PM
  • ***************
  • Conqueror
  • Legend Member
  • *****
  • Topic Author
  • Thank You: 1994
  • Reputation: 569
  • Activity:
    100%
  • Country: pk
  • Posts: 2353
  • Topics: 1614
  • Join Date: Mar 2015
  • =$ Success Never Ends $=
Ek Haseena Thi (2004) Hindi 480p DVDRip x264 AC3 5.1 ESub-Sun George












Quote

===================================================================



General
Format : Matroska
Format version : Version 4 / Version 2
File size : 1.46 GiB
Duration : 2 h 21 min
Overall bit rate : 1 476 kb/s
Movie name : Ek Haseena Thi (2004) Hindi 480p DVDRip x264 AC3 5.1 ESub-Sun George (Requested)



===================================================================



Video
ID : 1
Format : AVC
Format/Info : Advanced Video Codec
Format profile : [email protected]
Format settings : CABAC / 5 Ref Frames
Format settings, CABAC : Yes
Format settings, RefFrames : 5 frames
Codec ID : V_MPEG4/ISO/AVC
Duration : 2 h 21 min
Bit rate : 1 100 kb/s
Width : 720 pixels
Height : 320 pixels
Display aspect ratio : 2.25:1
Frame rate mode : Constant
Frame rate : 23.976 (24000/1001) FPS
Color space : YUV
Chroma subsampling : 4:2:0
Bit depth : 8 bits
Scan type : Progressive
Bits/(Pixel*Frame) : 0.199
Stream size : 1.08 GiB (74%)
Title : Sun George



===================================================================



Audio
ID : 2
Format : AC-3
Format/Info : Audio Coding 3
Codec ID : A_AC3
Duration : 2 h 21 min
Bit rate mode : Constant
Bit rate : 384 kb/s
Channel(s) : 6 channels
Channel positions : Front: L C R, Side: L R, LFE
Sampling rate : 48.0 kHz
Frame rate : 31.250 FPS (1536 SPF)
Bit depth : 16 bits
Compression mode : Lossy
Stream size : 388 MiB (26%)
Title : Sun George
Language : Hindi
Service kind : Complete Main
Default : Yes
Forced : No

Text
ID : 3
Format : UTF-8
Codec ID : S_TEXT/UTF8
Codec ID/Info : UTF-8 Plain Text
Duration : 2 h 12 min
Bit rate : 34 b/s
Count of elements : 927
Stream size : 33.4 KiB (0%)
Title : Sun George
Language : English
Default : Yes
Forced : Yes























 :download:













Share this topic on FacebookShare this topic on GoogleShare this topic on MySpaceShare this topic on TwitterShare this topic on Yahoo




Tags:
 

Related Topics





Back to top
3 years ago Lauren Phillips and Seth Gamble in My Friends Hot Mom | 2x10 The Good Doctor | TAXI DRIVER INDUCTION INFORMATION - Bristol.pdf