+ ShareSpark.net »  :::: Bollywood Zone » Bollywood Movies (Original Rips) » HEVC / H.265 Releases
|- Bachna Ae Haseeno (2008) (1080p BluRay x265 HEVC 10bit AAC 5.1 Hindi Natty)


Amazon Pantry Offer

Bachna Ae Haseeno (2008) (1080p BluRay x265 HEVC 10bit AAC 5.1 Hindi Natty)

0 Members and 1 Guest are viewing this topic.

December 27, 2018, 04:20:39 PM
  • Conqueror
  • Legend Member
  • *****
  • Topic Author
  • Thank You: 5700
  • Reputation: 1203
  • Activity:
    100%
  • Country: np
  • Posts: 2191
  • Topics: 1776
  • Join Date: Jul 2016
  • Love Forever !!
Bachna Ae Haseeno (2008) (1080p BluRay x265 HEVC 10bit AAC 5.1 Hindi Natty)



 :info:
Source : Bachna.Ae.Haseeno.2008.1080p.Blu-ray.Remux.AVC.DTS-HD.MA.5.1-DTOne
Format                                   : Matroska
Format version                           : Version 4 / Version 2
File size                                : 4.06 GiB
Duration                                 : 2 h 32 min
Overall bit rate                         : 3 809 kb/s


Video
ID                                       : 1
Format                                   : HEVC
Format/Info                              : High Efficiency Video Coding
Format profile                           : Main [email protected]@Main
Codec ID                                 : V_MPEGH/ISO/HEVC
Duration                                 : 2 h 32 min
Bit rate                                 : 3 246 kb/s
Width                                    : 1 920 pixels
Height                                   : 816 pixels
Display aspect ratio                     : 2.35:1
Frame rate mode                          : Constant
Frame rate                               : 24.000 FPS
Color space                              : YUV
Chroma subsampling                       : 4:2:0
Bit depth                                : 10 bits
Bits/(Pixel*Frame)                       : 0.086
Stream size                              : 3.46 GiB (85%)


Audio
ID                                       : 2
Format                                   : AAC
Format/Info                              : Advanced Audio Codec
Format profile                           : LC
Codec ID                                 : A_AAC
Duration                                 : 2 h 32 min
Bit rate                                 : 529 kb/s
Channel(s)                               : 6 channels
Channel positions                        : Front: L C R, Side: L R, LFE
Sampling rate                            : 48.0 kHz
Frame rate                               : 46.875 FPS (1024 spf)
Compression mode                         : Lossy
Delay relative to video                  : 20 ms
Stream size                              : 578 MiB (14%)
Language                                 : Hindi
Default                                  : No
Forced                                   : No


Subtitle #1
ID                                       : 3
Format                                   : PGS
Muxing mode                              : zlib
Codec ID                                 : S_HDMV/PGS
Codec ID/Info                            : Picture based subtitle format used on BDs/HD-DVDs
Duration                                 : 2 h 28 min
Bit rate                                 : 30.4 kb/s
Count of elements                        : 3782
Stream size                              : 32.3 MiB (1%)
Language                                 : English
Default                                  : Yes
Forced                                   : No


Subtitle #2
ID                                       : 4
Format                                   : PGS
Muxing mode                              : zlib
Codec ID                                 : S_HDMV/PGS
Codec ID/Info                            : Picture based subtitle format used on BDs/HD-DVDs
Duration                                 : 2 h 28 min
Bit rate                                 : 14.1 kb/s
Count of elements                        : 3774
Stream size                              : 14.9 MiB (0%)
Language                                 : Arabic
Default                                  : No
Forced                                   : No

Subtitle #3
ID                                       : 5
Format                                   : PGS
Muxing mode                              : zlib
Codec ID                                 : S_HDMV/PGS
Codec ID/Info                            : Picture based subtitle format used on BDs/HD-DVDs
Duration                                 : 2 h 28 min
Bit rate                                 : 55.1 kb/s
Count of elements                        : 4754
Stream size                              : 58.6 MiB (1%)
Language                                 : Tamil
Default                                  : No
Forced                                   : No


Subtitle #4
ID                                       : 6
Format                                   : PGS
Muxing mode                              : zlib
Codec ID                                 : S_HDMV/PGS
Codec ID/Info                            : Picture based subtitle format used on BDs/HD-DVDs
Duration                                 : 2 h 28 min
Bit rate                                 : 26.4 kb/s
Count of elements                        : 3774
Stream size                              : 28.1 MiB (1%)
Language                                 : Telugu
Default                                  : No
Forced                                   : No


Menu
00:00:00.000                             : en:Chapter 1
00:03:54.875                             : en:Chapter 2
00:13:08.708                             : en:Chapter 3
00:18:33.000                             : en:Chapter 4
00:27:12.000                             : en:Chapter 5
00:32:06.166                             : en:Chapter 6
00:37:03.041                             : en:Chapter 7
00:43:36.041                             : en:Chapter 8
00:56:09.500                             : en:Chapter 9
00:57:52.958                             : en:Chapter 10
01:08:52.083                             : en:Chapter 11
01:12:04.500                             : en:Chapter 12
01:17:18.375                             : en:Chapter 13
01:24:16.041                             : en:Chapter 14
01:27:49.083                             : en:Chapter 15
01:37:11.749                             : en:Chapter 16
01:48:43.083                             : en:Chapter 17
01:54:53.666                             : en:Chapter 18
01:58:47.541                             : en:Chapter 19
02:04:31.416                             : en:Chapter 20
02:07:17.374                             : en:Chapter 21
02:11:06.583                             : en:Chapter 22
02:19:37.583                             : en:Chapter 23
02:29:14.541                             : en:Chapter 24
02:32:21.041                             : en:Chapter 25



 :ss:






 :download:

Share this topic on FacebookShare this topic on GoogleShare this topic on MySpaceShare this topic on TwitterShare this topic on Yahoo




Tags:
 

Related Topics

  Subject / Started by Replies Last post
1 Replies
1016 Views
Last post February 08, 2018, 10:55:58 AM
by JokerRonaldo
1 Replies
1225 Views
Last post March 07, 2018, 09:46:56 AM
by Special26
0 Replies
921 Views
Last post April 10, 2018, 10:29:36 PM
by Nightfire
0 Replies
1281 Views
Last post June 05, 2018, 07:42:29 PM
by Nightfire
1 Replies
349 Views
Last post January 03, 2019, 08:27:42 PM
by devil001




Back to top
Nikki Amuka Bird | Bahasa Indonesia | Watchmen