+ ShareSpark.net »  :::: Bollywood Zone » Bollywood Movies (Original Rips) » HEVC / H.265 Releases
|- Mughal-E-Azam (1960) (1080p BluRay x265 HEVC 10bit AAC 5.1 Hindi Natty) [QxR]


Electroncs Sale

Mughal-E-Azam (1960) (1080p BluRay x265 HEVC 10bit AAC 5.1 Hindi Natty) [QxR]

0 Members and 1 Guest are viewing this topic.

January 11, 2019, 06:33:23 PM
  • Conqueror
  • Legend Member
  • *****
  • Topic Author
  • Thank You: 5699
  • Reputation: 1203
  • Activity:
    100%
  • Country: np
  • Posts: 2191
  • Topics: 1776
  • Join Date: Jul 2016
  • Love Forever !!
Mughal-E-Azam (1960) (1080p BluRay x265 HEVC 10bit AAC 5.1 Hindi Natty) [QxR]




 :info:
Source  : Mughal-E-Azam.(1960).Untouched.-.BD50.-.AVC.-.Dolby.TrueHD.5.1.-.MSuBS.-.Hon3yHD.[Exclusive] | 41 GB | Hon3yHD
Format                                   : Matroska
Format version                           : Version 4 / Version 2
File size                                : 5.13 GiB
Duration                                 : 3 h 3 min
Overall bit rate                         : 3 997 kb/s


Video
ID                                       : 1
Format                                   : HEVC
Format/Info                              : High Efficiency Video Coding
Format profile                           : Main [email protected]@Main
Codec ID                                 : V_MPEGH/ISO/HEVC
Duration                                 : 3 h 3 min
Bit rate                                 : 3 662 kb/s
Width                                    : 1 920 pixels
Height                                   : 1 080 pixels
Display aspect ratio                     : 16:9
Frame rate mode                          : Constant
Frame rate                               : 24.000 FPS
Color space                              : YUV
Chroma subsampling                       : 4:2:0
Bit depth                                : 10 bits
Bits/(Pixel*Frame)                       : 0.074
Stream size                              : 4.70 GiB (92%)


Audio
ID                                       : 2
Format                                   : AAC
Format/Info                              : Advanced Audio Codec
Format profile                           : LC
Codec ID                                 : A_AAC
Duration                                 : 3 h 3 min
Bit rate                                 : 317 kb/s
Channel(s)                               : 6 channels
Channel positions                        : Front: L C R, Side: L R, LFE
Sampling rate                            : 48.0 kHz
Frame rate                               : 46.875 FPS (1024 spf)
Compression mode                         : Lossy
Delay relative to video                  : 20 ms
Stream size                              : 417 MiB (8%)
Language                                 : Hindi
Default                                  : No
Forced                                   : No


Subtitle #1
ID                                       : 3
Format                                   : PGS
Muxing mode                              : zlib
Codec ID                                 : S_HDMV/PGS
Codec ID/Info                            : Picture based subtitle format used on BDs/HD-DVDs
Duration                                 : 3 h 0 min
Bit rate                                 : 22.8 kb/s
Count of elements                        : 2732
Stream size                              : 29.4 MiB (1%)
Language                                 : English
Default                                  : Yes
Forced                                   : No


Subtitle #2
ID                                       : 4
Format                                   : PGS
Muxing mode                              : zlib
Codec ID                                 : S_HDMV/PGS
Codec ID/Info                            : Picture based subtitle format used on BDs/HD-DVDs
Duration                                 : 3 h 0 min
Bit rate                                 : 12.8 kb/s
Count of elements                        : 2724
Stream size                              : 16.5 MiB (0%)
Language                                 : Arabic
Default                                  : No
Forced                                   : No


Menu
00:00:00.000                             : en:Chapter 01
00:08:30.958                             : en:Chapter 02
00:23:18.458                             : en:Chapter 03
00:33:47.208                             : en:Chapter 04
00:37:45.750                             : en:Chapter 05
00:50:06.791                             : en:Chapter 06
00:56:04.166                             : en:Chapter 07
01:13:40.458                             : en:Chapter 08
01:19:42.125                             : en:Chapter 09
01:27:14.208                             : en:Chapter 10
01:31:51.958                             : en:Chapter 11
01:41:18.833                             : en:Chapter 12
01:42:17.333                             : en:Chapter 13
01:53:02.416                             : en:Chapter 14
01:59:39.333                             : en:Chapter 15
02:04:18.625                             : en:Chapter 16
02:19:13.083                             : en:Chapter 17
02:29:39.333                             : en:Chapter 18
02:35:36.541                             : en:Chapter 19
02:41:04.083                             : en:Chapter 20
02:50:12.083                             : en:Chapter 21
02:57:38.375                             : en:Chapter 22



 :ss:






 :download:

Share this topic on FacebookShare this topic on GoogleShare this topic on MySpaceShare this topic on TwitterShare this topic on Yahoo



Thanks given by:


Tags:
 

Related Topics

  Subject / Started by Replies Last post
1 Replies
1016 Views
Last post February 08, 2018, 10:55:58 AM
by JokerRonaldo
1 Replies
348 Views
Last post January 03, 2019, 08:27:42 PM
by devil001
0 Replies
257 Views
Last post January 07, 2019, 04:31:52 PM
by Special26
0 Replies
325 Views
Last post January 07, 2019, 05:15:48 PM
by Special26
0 Replies
258 Views
Last post January 11, 2019, 06:12:00 PM
by Special26




Back to top
saison 1, épisode 579 - Débarquement ! Punk Hazard, une île livrée aux flammes | Watch Movie | Лион