+ ShareSpark.net »  :::: Bollywood Zone » Bollywood Movies (Original Rips) » Bollywood Movies (1945-2000)
|- Kachche Dhaage (1999) Hindi 720p WEB-HD x264 AC3 - Sun George


Amazon Pantry Offer

Kachche Dhaage (1999) Hindi 720p WEB-HD x264 AC3 - Sun George

0 Members and 1 Guest are viewing this topic.

January 22, 2019, 08:35:37 PM
  • Conqueror
  • Legend Member
  • *****
  • Topic Author
  • Thank You: 5662
  • Reputation: 1182
  • Activity:
    100%
  • Country: np
  • Posts: 2163
  • Topics: 1753
  • Join Date: Jul 2016
  • Love Forever !!
Kachche Dhaage (1999) Hindi 720p WEB-HD x264 AC3 - Sun George




Source : Hon3yHD (Thanks) !!
Format                                   : Matroska
Format version                           : Version 4 / Version 2
File size                                : 1.63 GiB
Duration                                 : 2 h 18 min
Overall bit rate                         : 1 686 kb/s


===================================================================


Video
ID                                       : 1
Format                                   : AVC
Format/Info                              : Advanced Video Codec
Format profile                           : [email protected]
Format settings                          : CABAC / 4 Ref Frames
Format settings, CABAC                   : Yes
Format settings, RefFrames               : 4 frames
Codec ID                                 : V_MPEG4/ISO/AVC
Duration                                 : 2 h 18 min
Bit rate                                 : 1 500 kb/s
Width                                    : 1 280 pixels
Height                                   : 720 pixels
Display aspect ratio                     : 16:9
Frame rate mode                          : Constant
Frame rate                               : 25.000 FPS
Color space                              : YUV
Chroma subsampling                       : 4:2:0
Bit depth                                : 8 bits
Scan type                                : Progressive
Bits/(Pixel*Frame)                       : 0.065
Stream size                              : 1.44 GiB (89%)

===================================================================

Audio
ID                                       : 2
Format                                   : AC-3
Format/Info                              : Audio Coding 3
Codec ID                                 : A_AC3
Duration                                 : 2 h 18 min
Bit rate mode                            : Constant
Bit rate                                 : 192 kb/s
Channel(s)                               : 2 channels
Channel positions                        : Front: L R
Sampling rate                            : 44.1 kHz
Frame rate                               : 28.711 FPS (1536 SPF)
Bit depth                                : 16 bits
Compression mode                         : Lossy
Stream size                              : 190 MiB (11%)
Language                                 : Hindi
Service kind                             : Complete Main
Default                                  : Yes
Forced                                   : No










 :download:

Share this topic on FacebookShare this topic on GoogleShare this topic on MySpaceShare this topic on TwitterShare this topic on Yahoo



Thanks given by:


Tags:
 

Related Topics

  Subject / Started by Replies Last post
4 Replies
1216 Views
Last post December 20, 2013, 03:58:51 AM
by м ωαqαя вuтт
0 Replies
506 Views
Last post June 06, 2015, 08:20:18 PM
by rflxn143
0 Replies
440 Views
Last post July 22, 2015, 09:12:04 AM
by rflxn143
1 Replies
951 Views
Last post January 11, 2016, 12:54:25 PM
by yogesh.sagpariya.5
0 Replies
674 Views
Last post January 11, 2016, 01:12:29 PM
by rflxn143




Back to top
Airwolf (1984) | IMDb: 6 4,814 HD The Incredible Jessica James | სპორტი და ლაშქრობა