+ ShareSpark.net »  :::: Bollywood Zone » Bollywood Movies (Original Rips) » Bollywood Movies (1945-2000)
|- Deewaar (1975) Hindi 720p BluRay x264 AAC 2.0 ESub {3.03 GB} - Sun George


100% Recharge Offer

Deewaar (1975) Hindi 720p BluRay x264 AAC 2.0 ESub {3.03 GB} - Sun George

0 Members and 1 Guest are viewing this topic.

January 26, 2019, 06:44:50 PM
  • Conqueror
  • Legend Member
  • *****
  • Topic Author
  • Thank You: 5662
  • Reputation: 1182
  • Activity:
    100%
  • Country: np
  • Posts: 2163
  • Topics: 1753
  • Join Date: Jul 2016
  • Love Forever !!
Deewaar (1975) Hindi 720p BluRay x264 AAC 2.0 ESub - Sun George






Source : DTOne (Thanks) !!
Format                                   : Matroska
Format version                           : Version 4 / Version 2
File size                                : 3.03 GiB
Duration                                 : 2 h 52 min
Overall bit rate                         : 2 518 kb/s


Video
ID                                       : 1
Format                                   : AVC
Format/Info                              : Advanced Video Codec
Format profile                           : [email protected]
Format settings                          : CABAC / 4 Ref Frames
Format settings, CABAC                   : Yes
Format settings, RefFrames               : 4 frames
Codec ID                                 : V_MPEG4/ISO/AVC
Duration                                 : 2 h 52 min
Bit rate                                 : 2 313 kb/s
Width                                    : 1 280 pixels
Height                                   : 928 pixels
Display aspect ratio                     : 1.379
Frame rate mode                          : Constant
Frame rate                               : 24.000 FPS
Color space                              : YUV
Chroma subsampling                       : 4:2:0
Bit depth                                : 8 bits
Scan type                                : Progressive
Bits/(Pixel*Frame)                       : 0.081
Stream size                              : 2.79 GiB (92%)


Audio
ID                                       : 2
Format                                   : AAC
Format/Info                              : Advanced Audio Codec
Format profile                           : LC
Codec ID                                 : A_AAC-2
Duration                                 : 2 h 52 min
Bit rate                                 : 192 kb/s
Channel(s)                               : 2 channels
Channel positions                        : Front: L R
Sampling rate                            : 48.0 kHz
Frame rate                               : 46.875 FPS (1024 SPF)
Compression mode                         : Lossy
Stream size                              : 237 MiB (8%)
Language                                 : Hindi
Default                                  : Yes
Forced                                   : No


Text
ID                                       : 3
Format                                   : PGS
Muxing mode                              : zlib
Codec ID                                 : S_HDMV/PGS
Codec ID/Info                            : Picture based subtitle format used on BDs/HD-DVDs
Duration                                 : 2 h 48 min
Bit rate                                 : 27.7 kb/s
Count of elements                        : 3039
Stream size                              : 33.4 MiB (1%)
Language                                 : English
Default                                  : Yes
Forced                                   : Yes


Menu

00:00:00.000                             : :Chapter 1
00:05:57.458                             : :Chapter 2
00:20:08.083                             : :Chapter 3
00:28:30.875                             : :Chapter 4
00:40:28.208                             : :Chapter 5
00:43:30.875                             : :Chapter 6
00:56:08.625                             : :Chapter 7
01:09:01.958                             : :Chapter 8
01:13:58.208                             : :Chapter 9
01:31:06.208                             : :Chapter 10
01:35:09.208                             : :Chapter 11
01:58:03.500                             : :Chapter 12
02:15:52.166                             : :Chapter 13
02:25:46.458                             : :Chapter 14
02:34:45.500                             : :Chapter 15
02:44:16.416                             : :Chapter 16













 :download:

Share this topic on FacebookShare this topic on GoogleShare this topic on MySpaceShare this topic on TwitterShare this topic on Yahoo



Thanks given by:


Tags:
 

Related Topics

  Subject / Started by Replies Last post
1 Replies
1225 Views
Last post October 09, 2014, 09:32:14 AM
by azhar0300♥♫
0 Replies
1046 Views
Last post October 09, 2014, 09:30:17 AM
by azhar0300♥♫
0 Replies
921 Views
Last post February 28, 2015, 08:13:54 PM
by Noµʍaɲ
5 Replies
2665 Views
Last post June 28, 2018, 12:17:46 PM
by KARAN75F
0 Replies
752 Views
Last post July 21, 2016, 11:56:50 AM
by -Ð@Rk.ÐèVi£-




Back to top
The Secret Life of the Z00 - Season 7 | Bert Freed | 03.02.1905:55 Uhr SpelunKing The Mine Match 3-Gewinnt0 / 01.162 Hits VID P2P DDL 0 Kommentare