+ ShareSpark.net »  :::: Bollywood Zone » Bollywood Movies (Original Rips) » HEVC / H.265 Releases
|- Mardaani (2014) (1080p BluRay x265 HEVC 10bit AAC 5.1) - [QxR]


Electroncs Sale

Mardaani (2014) (1080p BluRay x265 HEVC 10bit AAC 5.1) - [QxR]

0 Members and 1 Guest are viewing this topic.

February 01, 2019, 08:39:41 AM
  • Conqueror
  • Legend Member
  • *****
  • Topic Author
  • Thank You: 5700
  • Reputation: 1203
  • Activity:
    100%
  • Country: np
  • Posts: 2191
  • Topics: 1776
  • Join Date: Jul 2016
  • Love Forever !!
Mardaani (2014) (1080p BluRay x265 HEVC 10bit AAC 5.1) - [QxR]




 :info:
Source : Mardaani.2014.Complete.Bluray.AVC.Dolby.TrueHD.5.1-DTOne
Format : Matroska
Format version : Version 4 / Version 2
File size : 1.88 GiB
Duration : 1 h 54 min
Overall bit rate : 2 362 kb/s
Writing application : mkvmerge v29.0.0 ('Like It Or Not') 64-bit
Writing library : libebml v1.3.6 + libmatroska v1.4.9
Writing frontend : Natty


Video
ID : 1
Format : HEVC
Format/Info : High Efficiency Video Coding
Format profile : Main [email protected]@Main
Codec ID : V_MPEGH/ISO/HEVC
Duration : 1 h 54 min
Bit rate : 1 847 kb/s
Width : 1 920 pixels
Height : 816 pixels
Display aspect ratio : 2.35:1
Frame rate mode : Constant
Frame rate : 24.000 FPS
Color space : YUV
Chroma subsampling : 4:2:0
Bit depth : 10 bits
Bits/(Pixel*Frame) : 0.049
Stream size : 1.47 GiB (78%)


Audio
ID : 2
Format : AAC
Format/Info : Advanced Audio Codec
Format profile : LC
Codec ID : A_AAC
Duration : 1 h 54 min
Bit rate : 486 kb/s
Channel(s) : 6 channels
Channel positions : Front: L C R, Side: L R, LFE
Sampling rate : 48.0 kHz
Frame rate : 46.875 FPS (1024 spf)
Compression mode : Lossy
Delay relative to video : 20 ms
Stream size : 397 MiB (21%)
Language : Hindi
Default : No
Forced : No

Subtitle #1
ID : 3
Format : PGS
Muxing mode : zlib
Codec ID : S_HDMV/PGS
Codec ID/Info : Picture based subtitle format used on BDs/HD-DVDs
Duration : 1 h 48 min
Bit rate : 39.3 kb/s
Count of elements : 3340
Stream size : 30.4 MiB (2%)
Language : English
Default : Yes
Forced : No

Subtitle #2
ID : 4
Format : PGS
Muxing mode : zlib
Codec ID : S_HDMV/PGS
Codec ID/Info : Picture based subtitle format used on BDs/HD-DVDs
Duration : 1 h 48 min
Bit rate : 22.6 kb/s
Count of elements : 3340
Stream size : 17.5 MiB (1%)
Language : Arabic
Default : No
Forced : No

Menu

00:00:00.000 : en:Chapter 01
00:07:04.458 : en:Chapter 02
00:12:14.583 : en:Chapter 03
00:18:18.333 : en:Chapter 04
00:23:40.333 : en:Chapter 05
00:29:43.833 : en:Chapter 06
00:39:57.291 : en:Chapter 07
00:42:05.041 : en:Chapter 08
00:50:00.168 : en:Chapter 01
00:57:27.210 : en:Chapter 02
01:03:31.293 : en:Chapter 03
01:12:16.585 : en:Chapter 04
01:20:16.127 : en:Chapter 05
01:23:17.418 : en:Chapter 06
01:31:10.627 : en:Chapter 07
01:37:47.168 : en:Chapter 08
01:45:15.877 : en:Chapter 09
01:49:45.918 : en:Chapter 10



 :ss:






 :download:


Share this topic on FacebookShare this topic on GoogleShare this topic on MySpaceShare this topic on TwitterShare this topic on Yahoo



Thanks given by:


Tags:
 

Related Topics

  Subject / Started by Replies Last post
1 Replies
645 Views
Last post October 01, 2014, 09:20:11 AM
by azhar0300♥♫
1 Replies
636 Views
Last post October 01, 2014, 09:18:49 AM
by azhar0300♥♫
1 Replies
884 Views
Last post March 22, 2017, 05:02:37 AM
by genie01
0 Replies
570 Views
Last post October 03, 2014, 09:42:23 PM
by partha0135
0 Replies
336 Views
Last post October 09, 2017, 07:05:50 PM
by ♥[--K4Krish--]♥




Back to top
Batman Robin | HD Red Sparrow | 西部世界第二季[2160p]