+ ShareSpark.net »  :::: Bollywood Zone » Bollywood Movies (Original Rips) » Bollywood Movies (1945-2000)
|- Tiranga (1993) 720p HDRip X264 AC-3 - [XMR]


Amazon Pantry Offer

Tiranga (1993) 720p HDRip X264 AC-3 - [XMR]

0 Members and 1 Guest are viewing this topic.

February 01, 2019, 09:30:02 AM
  • Conqueror
  • Legend Member
  • *****
  • Topic Author
  • Thank You: 5662
  • Reputation: 1182
  • Activity:
    100%
  • Country: np
  • Posts: 2163
  • Topics: 1753
  • Join Date: Jul 2016
  • Love Forever !!
Tiranga (1993) 720p HDRip X264 AC-3 - [XMR]




 :info:
Source : [email protected] Hammer (Thanks) !!

Format                      : Matroska

Format version              : Version 2

File size                  : 1.50 GiB

Duration                    : 2 h 39 min

Overall bit rate            : 1 343 kb/s


Video

ID                          : 1

Format                      : AVC

Format/Info                : Advanced Video Codec

Format profile              : [email protected]

Format settings            : CABAC / 4 Ref Frames

Format settings, CABAC      : Yes

Format settings, ReFrames  : 4 frames

Codec ID                    : V_MPEG4/ISO/AVC

Duration                    : 2 h 39 min

Bit rate                    : 1 211 kb/s

Width                      : 1 280 pixels

Height                      : 536 pixels

Display aspect ratio        : 2.40:1

Frame rate mode            : Constant

Frame rate                  : 25.000 FPS

Color space                : YUV

Chroma subsampling          : 4:2:0

Bit depth                  : 8 bits

Scan type                  : Progressive

Bits/(Pixel*Frame)          : 0.071

Stream size                : 1.35 GiB (90%)


Audio

ID                          : 2

Format                      : AC-3

Format/Info                : Audio Coding 3

Commercial name            : Dolby Digital

Codec ID                    : A_AC3

Duration                    : 2 h 39 min

Bit rate mode              : Constant

Bit rate                    : 128 kb/s

Channel(s)                  : 2 channels

Channel positions          : Front: L R

Sampling rate              : 48.0 kHz

Frame rate                  : 31.250 FPS (1536 SPF)

Bit depth                  : 16 bits

Compression mode            : Lossy

Stream size                : 146 MiB (10%)

Language                    : Hindi

Service kind                : Complete Main

Default                    : Yes

Forced                      : No



 :ss:









 :download:


Share this topic on FacebookShare this topic on GoogleShare this topic on MySpaceShare this topic on TwitterShare this topic on Yahoo

« Last Edit: February 01, 2019, 09:30:43 AM by Special26 »


Thanks given by:


February 01, 2019, 01:20:42 PM
Reply #1
  • Newbie
  • **
  • Thank You: 1
  • Reputation: 0
  • Activity:
    8%
  • Country: in
  • Posts: 3
  • Topics: 2
  • Join Date: Jan 2019
  • ShareSpark Member
Thanks but can you provide the Link of this movie Untouched WebDL 1080p

Tags:
 

Related Topics

  Subject / Started by Replies Last post
1 Replies
756 Views
Last post June 15, 2017, 04:32:01 PM
by ~DoSANJiT
0 Replies
903 Views
Last post April 13, 2017, 01:01:39 PM
by sagarsingha
2 Replies
814 Views
Last post February 28, 2018, 05:49:40 PM
by Changezi
0 Replies
223 Views
Last post January 12, 2019, 12:38:28 AM
by mohd.nadir.140
0 Replies
185 Views
Last post January 17, 2019, 09:49:52 PM
by mohd.nadir.140




Back to top
Sind wir für die Monogamie geschaffen? Jetzt Frage ich | Download | Nenhum Comentário