+ ShareSpark.net »  :::: Bollywood Zone » Bollywood Movies (Original Rips) » Bollywood Movies (1945-2000)
|- Salaam Bombay (1988) Hindi 720p BluRay x264 AAC 2.0 ESubs - Sun George


Mastercard 10% Off

Salaam Bombay (1988) Hindi 720p BluRay x264 AAC 2.0 ESubs - Sun George

0 Members and 1 Guest are viewing this topic.

February 02, 2019, 07:55:50 PM
  • Conqueror
  • Legend Member
  • *****
  • Topic Author
  • Thank You: 5662
  • Reputation: 1182
  • Activity:
    100%
  • Country: np
  • Posts: 2163
  • Topics: 1753
  • Join Date: Jul 2016
  • Love Forever !!
Salaam Bombay (1988) Hindi 720p BluRay x264 AAC 2.0 ESubs - Sun George






Source : DTOne (Thanks) !!
Format                      : Matroska
Format version              : Version 4 / Version 2
File size                   : 1.02 GiB
Duration                    : 1 h 54 min
Overall bit rate            : 1 270 kb/s

Video
ID                          : 1
Format                      : AVC
Format/Info                 : Advanced Video Codec
Format profile              : [email protected]
Format settings             : CABAC / 5 Ref Frames
Format settings, CABAC      : Yes
Format settings, ReFrames   : 5 frames
Codec ID                    : V_MPEG4/ISO/AVC
Duration                    : 1 h 54 min
Bit rate                    : 1 200 kb/s
Width                       : 1 280 pixels
Height                      : 704 pixels
Display aspect ratio        : 1.85:1
Frame rate mode             : Constant
Frame rate                  : 23.976 (24000/1001) FPS
Color space                 : YUV
Chroma subsampling          : 4:2:0
Bit depth                   : 8 bits
Scan type                   : Progressive
Bits/(Pixel*Frame)          : 0.056
Stream size                 : 973 MiB (94%)

Audio
ID                          : 2
Format                      : AAC LC
Format/Info                 : Advanced Audio Codec Low Complexity
Codec ID                    : A_AAC-2
Duration                    : 1 h 54 min
Bit rate                    : 79.3 kb/s
Channel(s)                  : 2 channels
Channel layout              : L R
Sampling rate               : 48.0 kHz
Frame rate                  : 46.875 FPS (1024 SPF)
Compression mode            : Lossy
Delay relative to video     : 9 ms
Stream size                 : 64.9 MiB (6%)
Title                       : Sun George
Language                    : Hindi
Default                     : Yes
Forced                      : No

Text
ID                          : 3
Format                      : ---
Codec ID                    : S_TEXT
Codec ID/Info               : Advanced Sub Station Alpha
Duration                    : 1 h 45 min
Bit rate                    : 47 b/s
Count of elements           : 753
Compression mode            : Lossless
Stream size                 : 36.2 KiB (0%)
Title                       : Sun George
Language                    : English
Default                     : Yes
Forced                      : Yes











 :download:



Share this topic on FacebookShare this topic on GoogleShare this topic on MySpaceShare this topic on TwitterShare this topic on Yahoo




Tags:
 

Related Topics

  Subject / Started by Replies Last post
1 Replies
1045 Views
Last post March 20, 2013, 08:04:03 AM
by hunterz007
2 Replies
1174 Views
Last post October 29, 2013, 02:24:24 AM
by ıllıllı αнʍє иυя ıllıllı
0 Replies
615 Views
Last post February 28, 2016, 03:09:07 AM
by hotfile111
0 Replies
137 Views
Last post January 12, 2019, 02:58:06 PM
by Special26
0 Replies
161 Views
Last post February 12, 2019, 05:44:00 PM
by Special26




Back to top
Fifty Shades Darker (Fifty Shades #2) | épisode 12 Chapter Twelve: Anatomy of a Murder | 0 rponse