+ ShareSpark.net »  :::: Bollywood Zone » Bollywood Movies (Original Rips) » Bollywood Movies (1945-2000)
|- Parinda (1989) Hindi 720p WEB-DL x264 AAC - Sun George


Electroncs Sale

Parinda (1989) Hindi 720p WEB-DL x264 AAC - Sun George

0 Members and 1 Guest are viewing this topic.

February 02, 2019, 08:19:12 PM
  • Conqueror
  • Legend Member
  • *****
  • Topic Author
  • Thank You: 5662
  • Reputation: 1182
  • Activity:
    100%
  • Country: np
  • Posts: 2163
  • Topics: 1753
  • Join Date: Jul 2016
  • Love Forever !!
Parinda (1989) Hindi 720p WEB-DL x264 AAC - Sun George





Source : DTOne (Thanks) !!
Format                      : Matroska
Format version              : Version 4 / Version 2
File size                   : 1.69 GiB
Duration                    : 2 h 28 min
Overall bit rate            : 1 629 kb/s


Video
ID                          : 1
Format                      : AVC
Format/Info                 : Advanced Video Codec
Format profile              : [email protected]
Format settings             : CABAC / 4 Ref Frames
Format settings, CABAC      : Yes
Format settings, ReFrames   : 4 frames
Codec ID                    : V_MPEG4/ISO/AVC
Duration                    : 2 h 28 min
Bit rate                    : 1 500 kb/s
Width                       : 1 280 pixels
Height                      : 720 pixels
Display aspect ratio        : 16:9
Frame rate mode             : Constant
Frame rate                  : 25.000 FPS
Color space                 : YUV
Chroma subsampling          : 4:2:0
Bit depth                   : 8 bits
Scan type                   : Progressive
Bits/(Pixel*Frame)          : 0.065
Stream size                 : 1.56 GiB (92%)


Audio
ID                          : 2
Format                      : AAC LC
Format/Info                 : Advanced Audio Codec
Codec ID                    : A_AAC-2
Duration                    : 2 h 28 min
Bit rate                    : 125 kb/s
Channel(s)                  : 2 channels
Channel layout              : L R
Sampling rate               : 48.0 kHz
Frame rate                  : 46.875 FPS (1024 SPF)
Compression mode            : Lossy
Stream size                 : 133 MiB (8%)
Title                       : Sun George
Language                    : Hindi
Default                     : Yes
Forced                      : No












 :download:


Share this topic on FacebookShare this topic on GoogleShare this topic on MySpaceShare this topic on TwitterShare this topic on Yahoo



Thanks given by:


Tags:
 

Related Topics

  Subject / Started by Replies Last post
1 Replies
915 Views
Last post September 19, 2013, 11:35:55 PM
by ıllıllı αнʍє иυя ıllıllı
0 Replies
546 Views
Last post September 01, 2014, 10:56:44 AM
by NikS97
0 Replies
730 Views
Last post June 15, 2015, 02:24:09 AM
by м ωαqαя вuтт
0 Replies
522 Views
Last post June 15, 2015, 06:22:56 AM
by ♥ Mann ♥
1 Replies
566 Views
Last post October 28, 2018, 07:06:00 AM
by Vagabond




Back to top
4ª Temporada | Watch movie | Doctor Who S11E07 VOSTFR HDTV