+ ShareSpark.net »  :::: Bollywood Zone » Bollywood Movies (Original Rips) » Bollywood Movies (1945-2000)
|- Khiladiyon Ka Khiladi (1996) Hindi 720p WEB-HD x264 AC3 2.0 - Sun George


Electroncs Sale

Khiladiyon Ka Khiladi (1996) Hindi 720p WEB-HD x264 AC3 2.0 - Sun George

0 Members and 1 Guest are viewing this topic.

February 06, 2019, 09:14:42 AM
  • Conqueror
  • Legend Member
  • *****
  • Topic Author
  • Thank You: 5662
  • Reputation: 1182
  • Activity:
    100%
  • Country: np
  • Posts: 2163
  • Topics: 1753
  • Join Date: Jul 2016
  • Love Forever !!
Khiladiyon Ka Khiladi (1996) Hindi 720p WEB-HD x264 AC3 2.0 - Sun George






Source : DTOne (Thanks) !!
Format                      : Matroska
Format version              : Version 4 / Version 2
File size                   : 1.93 GiB
Duration                    : 2 h 43 min
Overall bit rate            : 1 692 kb/s

Video
ID                          : 1
Format                      : AVC
Format/Info                 : Advanced Video Codec
Format profile              : [email protected]
Format settings             : CABAC / 5 Ref Frames
Format settings, CABAC      : Yes
Format settings, ReFrames   : 5 frames
Codec ID                    : V_MPEG4/ISO/AVC
Duration                    : 2 h 43 min
Bit rate                    : 1 500 kb/s
Width                       : 1 280 pixels
Height                      : 720 pixels
Display aspect ratio        : 16:9
Frame rate mode             : Constant
Frame rate                  : 25.000 FPS
Color space                 : YUV
Chroma subsampling          : 4:2:0
Bit depth                   : 8 bits
Scan type                   : Progressive
Bits/(Pixel*Frame)          : 0.065
Stream size                 : 1.71 GiB (89%)

Audio
ID                          : 2
Format                      : AC-3
Format/Info                 : Audio Coding 3
Commercial name             : Dolby Digital
Codec ID                    : A_AC3
Duration                    : 2 h 43 min
Bit rate mode               : Constant
Bit rate                    : 192 kb/s
Channel(s)                  : 2 channels
Channel layout              : L R
Sampling rate               : 48.0 kHz
Frame rate                  : 31.250 FPS (1536 SPF)
Bit depth                   : 16 bits
Compression mode            : Lossy
Stream size                 : 224 MiB (11%)
Title                       : Sun George
Language                    : Hindi
Service kind                : Complete Main
Default                     : Yes
Forced                      : No



 :ss:







 :download:

Share this topic on FacebookShare this topic on GoogleShare this topic on MySpaceShare this topic on TwitterShare this topic on Yahoo



Thanks given by:


Tags:
 

Related Topics





Back to top
Mabel Don't Call Me Up | Regarder | August 9, 2017