+ ShareSpark.net »  :::: Bollywood Zone » Bollywood Movies (Original Rips) » Bollywood Movies (1945-2000)
|- Aarzoo (1999) 720p WEBRip Hindi x264 AAC - [email protected]


100% Recharge Offer

Aarzoo (1999) 720p WEBRip Hindi x264 AAC - [email protected]

0 Members and 1 Guest are viewing this topic.

February 08, 2019, 08:32:12 AM
  • Conqueror
  • Legend Member
  • *****
  • Topic Author
  • Thank You: 5662
  • Reputation: 1182
  • Activity:
    100%
  • Country: np
  • Posts: 2163
  • Topics: 1753
  • Join Date: Jul 2016
  • Love Forever !!
Aarzoo (1999) 720p WEBRip Hindi x264 AAC - [email protected]




 :info:
Format                                   : MPEG-4
Format profile                           : Base Media
Codec ID                                 : isom (isom/iso2/avc1/mp41)
File size                                : 1.36 GiB
Duration                                 : 2 h 39 min
Overall bit rate                         : 1 219 kb/s

Video
ID                                       : 1
Format                                   : AVC
Format/Info                              : Advanced Video Codec
Format profile                           : [email protected]
Format settings                          : CABAC / 5 Ref Frames
Format settings, CABAC                   : Yes
Format settings, RefFrames               : 5 frames
Codec ID                                 : avc1
Codec ID/Info                            : Advanced Video Coding
Duration                                 : 2 h 39 min
Bit rate                                 : 1 088 kb/s
Width                                    : 1 280 pixels
Height                                   : 542 pixels
Display aspect ratio                     : 2.35:1
Frame rate mode                          : Constant
Frame rate                               : 25.000 FPS
Color space                              : YUV
Chroma subsampling                       : 4:2:0
Bit depth                                : 8 bits
Scan type                                : Progressive
Bits/(Pixel*Frame)                       : 0.063
Stream size                              : 1.21 GiB (89%)

Audio
ID                                       : 2
Format                                   : AAC LC
Format/Info                              : Advanced Audio Codec
Codec ID                                 : mp4a-40-2
Duration                                 : 2 h 39 min
Bit rate mode                            : Constant
Bit rate                                 : 128 kb/s
Channel(s)                               : 2 channels
Channel layout                           : L R
Sampling rate                            : 48.0 kHz
Frame rate                               : 46.875 FPS (1024 SPF)
Compression mode                         : Lossy
Stream size                              : 146 MiB (10%)
Default                                  : Yes
Alternate group                          : 1



 :ss:







 :download:


Share this topic on FacebookShare this topic on GoogleShare this topic on MySpaceShare this topic on TwitterShare this topic on Yahoo



Thanks given by:


Tags:
 

Related Topics





Back to top
Derek de Lint | saison 10, ├ępisode 8 - Deux contre un | Lenovo Launcher APK