+ ShareSpark.net »  :::: Bollywood Zone » Bollywood Movies (Original Rips) » Bollywood Movies (1945-2000)
|- Karma (1986) Hindi 720p WEB-HD x264 AC3 - Sun George


One Plus 6

Karma (1986) Hindi 720p WEB-HD x264 AC3 - Sun George

0 Members and 1 Guest are viewing this topic.

February 09, 2019, 10:21:00 AM
  • Conqueror
  • Legend Member
  • *****
  • Topic Author
  • Thank You: 5662
  • Reputation: 1182
  • Activity:
    100%
  • Country: np
  • Posts: 2163
  • Topics: 1753
  • Join Date: Jul 2016
  • Love Forever !!
Karma (1986) Hindi 720p WEB-HD x264 AC3 - Sun George






Source : Hon3yHD (Thanks) !!
Format                      : Matroska
Format version              : Version 4 / Version 2
File size                   : 2.09 GiB
Duration                    : 2 h 56 min
Overall bit rate            : 1 696 kb/s

Video
ID                          : 1
Format                      : AVC
Format/Info                 : Advanced Video Codec
Format profile              : [email protected]
Format settings             : CABAC / 5 Ref Frames
Format settings, CABAC      : Yes
Format settings, ReFrames   : 5 frames
Codec ID                    : V_MPEG4/ISO/AVC
Duration                    : 2 h 56 min
Bit rate                    : 1 500 kb/s
Width                       : 1 280 pixels
Height                      : 720 pixels
Display aspect ratio        : 16:9
Frame rate mode             : Constant
Frame rate                  : 25.000 FPS
Color space                 : YUV
Chroma subsampling          : 4:2:0
Bit depth                   : 8 bits
Scan type                   : Progressive
Bits/(Pixel*Frame)          : 0.065
Stream size                 : 1.85 GiB (89%)

Audio
ID                          : 2
Format                      : AC-3
Format/Info                 : Audio Coding 3
Commercial name             : Dolby Digital
Codec ID                    : A_AC3
Duration                    : 2 h 56 min
Bit rate mode               : Constant
Bit rate                    : 192 kb/s
Channel(s)                  : 2 channels
Channel layout              : L R
Sampling rate               : 44.1 kHz
Frame rate                  : 28.711 FPS (1536 SPF)
Bit depth                   : 16 bits
Compression mode            : Lossy
Stream size                 : 242 MiB (11%)
Language                    : Hindi
Service kind                : Complete Main
Default                     : Yes
Forced                      : No














 :download:


Share this topic on FacebookShare this topic on GoogleShare this topic on MySpaceShare this topic on TwitterShare this topic on Yahoo



Thanks given by:


Tags:
 

Related Topics

  Subject / Started by Replies Last post
1 Replies
863 Views
Last post February 23, 2014, 02:50:43 PM
by •●๋ HεʍⓀυмΔя ☣
0 Replies
540 Views
Last post January 29, 2015, 03:39:16 PM
by ★★♫♪αgєит 47© ♥♫★★
0 Replies
529 Views
Last post July 12, 2015, 09:04:52 AM
by ♫♪ RΩCK BΩY ♥♫
0 Replies
373 Views
Last post July 27, 2018, 06:44:34 PM
by ♥ Mann ♥
1 Replies
291 Views
Last post October 15, 2018, 04:55:25 PM
by mohit789in




Back to top
Agnifera | Der Staat gegen Fritz Bauer | Zwischen zwei Leben (2017)