+ ShareSpark.net »  :::: Bollywood Zone » Bollywood Movies (Original Rips) » Bollywood Movies (1945-2000)
|- HOTE HOTE PYAAR HO GAYA (1999) DVDRIP X264 AC-3 5.1 [XMR]


Electroncs Sale
  • HOTE HOTE PYAAR HO GAYA (1999) DVDRIP X264 AC-3 5.1 [XMR] 3 1
Currently:  

HOTE HOTE PYAAR HO GAYA (1999) DVDRIP X264 AC-3 5.1 [XMR]

0 Members and 1 Guest are viewing this topic.

February 10, 2019, 06:44:23 PM
  • Conqueror
  • Legend Member
  • *****
  • Topic Author
  • Thank You: 5662
  • Reputation: 1182
  • Activity:
    100%
  • Country: np
  • Posts: 2163
  • Topics: 1753
  • Join Date: Jul 2016
  • Love Forever !!
HOTE HOTE PYAAR HO GAYA (1999) DVDRIP X264 AC-3 5.1 [XMR]




 :info:
Source : Untouched DVD9 DEI @ Unknown
Format                      : Matroska
Format version              : Version 2
File size                  : 1.46 GiB
Duration                    : 2 h 19 min
Overall bit rate            : 1 501 kb/s


Video
ID                          : 1
Format                      : AVC
Format/Info                : Advanced Video Codec
Format profile              : [email protected]
Format settings            : CABAC / 4 Ref Frames
Format settings, CABAC      : Yes
Format settings, ReFrames  : 4 frames
Codec ID                    : V_MPEG4/ISO/AVC
Duration                    : 2 h 19 min
Bit rate                    : 1 057 kb/s
Width                      : 648 pixels
Height                      : 344 pixels
Display aspect ratio        : 1.884
Frame rate mode            : Constant
Frame rate                  : 23.976 (24000/1001) FPS
Color space                : YUV
Chroma subsampling          : 4:2:0
Bit depth                  : 8 bits
Scan type                  : Progressive
Bits/(Pixel*Frame)          : 0.198
Stream size                : 1.02 GiB (70%)
Writing library            : x264 core 157
Language                    : Hindi
Default                    : Yes
Forced                      : No


Audio
ID                          : 2
Format                      : AC-3
Format/Info                : Audio Coding 3
Commercial name            : Dolby Digital
Codec ID                    : A_AC3
Duration                    : 2 h 19 min
Bit rate mode              : Constant
Bit rate                    : 448 kb/s
Channel(s)                  : 6 channels
Channel layout              : L R C LFE Ls Rs
Sampling rate              : 48.0 kHz
Frame rate                  : 31.250 FPS (1536 SPF)
Bit depth                  : 16 bits
Compression mode            : Lossy
Stream size                : 447 MiB (30%)
Service kind                : Complete Main
Default                    : Yes
Forced                      : No



 :ss:











 :download:

Share this topic on FacebookShare this topic on GoogleShare this topic on MySpaceShare this topic on TwitterShare this topic on Yahoo



Thanks given by:


Tags:
 

Related Topics

  Subject / Started by Replies Last post
2 Replies
744 Views
Last post September 01, 2014, 12:31:01 AM
by Misty
0 Replies
489 Views
Last post June 04, 2015, 11:28:31 AM
by ♥ Mann ♥
0 Replies
392 Views
Last post June 04, 2015, 03:20:17 PM
by ★·.·★ Vίјάy ★·.·★
0 Replies
340 Views
Last post June 04, 2015, 05:06:07 PM
by lovely1629
1 Replies
510 Views
Last post September 11, 2015, 02:55:47 PM
by spd




Back to top
file_downloadTélécharger | La Tierra De Las Mareas HDTV 720p AC3 5.1 | Cheech and Chong